Дюнкерк на телефон планшет


1 1 1 1 1 Рейтинг 2.00 /2
Дюнкерк

 

Оригинальное название: Dunkirk
Год выхода: 1958
Страна: Великобритания
Режиссер: Лесли Норман

Краткое содержание:
Беззаботный британский капрал, находящийся во Франции, узнаёт, что он оказался ответственным за жизни своих людей после гибели их офицера. И он должен найти способ вернуть их в Англию. Тем временем британские гражданские лица оказываются втянутыми в войну при помощи операции «Динамо», целью которой было вернуть французские и британские войска на побережье Дюнкерка.

Продолжительность: 02:15:20
Перевод: Авторский
Качество: WEB-DLRip

Видео: 480x208, 500 kb/s, 24 k/s
Звук: stereo , 96 kb/s, 44,1 khz
Размер: 584.37 MB

 

Mediainfo

Формат                                   : MPEG-4
Профиль формата                          : Base Media
Идентификатор кодека                     : isom (isom/iso2/avc1/mp41)
Размер файла                             : 584 Мбайт
Продолжительность                        : 2 ч. 15 м.
Режим общего битрейта                    : Переменный
Общий поток                              : 604 Кбит/сек

Видео
Идентификатор                            : 1
Формат                                   : AVC
Формат/Информация                        : Advanced Video Codec
Профиль формата                          : Baseline@L1.3
Параметр CABAC формата                   : Нет
Параметр ReFrames формата                : 1 кадр
Параметр GOP формата                     : M=1, N=12
Идентификатор кодека                     : avc1
Идентификатор кодека/Информация          : Advanced Video Coding
Продолжительность                        : 2 ч. 15 м.
Битрейт                                  : 503 Кбит/сек
Ширина                                   : 480 пикселей
Высота                                   : 208 пикселей
Соотношение сторон                       : 16:9
Режим частоты кадров                     : Постоянный
Частота кадров                           : 23,976 (23976/1000) кадра/сек
Цветовое пространство                    : YUV
Субдискретизация насыщенности            : 4:2:0
Битовая глубина                          : 8 бит
Тип развёртки                            : Прогрессивная
Бит/(Пиксели*Кадры)                      : 0.210
Размер потока                            : 487 Мбайт (83%)

Аудио
Идентификатор                            : 2
Формат                                   : AAC
Формат/Информация                        : Advanced Audio Codec
Профиль формата                          : LC
Идентификатор кодека                     : 40
Продолжительность                        : 2 ч. 15 м.
Вид битрейта                             : Переменный
Битрейт                                  : 96,0 Кбит/сек
Каналы                                   : 2 канала
Расположение каналов                     : Front: L R
Частота                                  : 44,1 КГц
Частота кадров                           : 43,066 кадра/сек (1024 spf)
Метод сжатия                             : С потерями
Размер потока                            : 92,9 Мбайт (16%)


Дюнкерк адаптирован для скачивания и просмотра на телефонах, планшетах, смартфонах андроид

Смотреть онлайн Дюнкерк на андроид

Видео


Трейлер

Смотреть онлайн Дюнкерк
Плеер

Смотреть онлайн Дюнкерк

Скачать фильм Дюнкерк на телефон планшет смартфон андроид



СКАЧАТЬ ФИЛЬМ


НАЖАВ НА ЛЮБУЮ УДОБНУЮ ДЛЯ ВАС КНОПОЧКУ, ВЫ ПОМОГАЕТЕ САЙТУ РАЗВИВАТЬСЯ И НАПОЛНЯТЬСЯ НОВЫМИ ФИЛЬМАМИ МУЛЬТФИЛЬМАМИ И СЕРИАЛАМИ

У вас недостаточно прав для добавления комментариев.

Дюнкерк
Дюнкерк скачать на телефон планшет андроид на 7ba ru, anwap ru, anwap ru org, kape cc https://drop.me/BZyYjM
Дюнкерк | | 2017-07-20 16:31:04 | | военный | http://cinemaphone.ru/images/logo.png | Беззаботный британский капрал, находящийся во Франции, узнаёт, что он оказался ответственным за жизни своих людей после гибели их офицера | Джон Миллс, Роберт Эркарт, Рэй Джексон, Мередит Эдвардс, Энтони Николлс, Бернард Ли, Майкл Шилло, Ричард Аттенборо, Шон Баррет, Виктор Маддерн