Клеймо (2017) на телефон планшет

1 1 1 1 1 Рейтинг 3.80 /5
Клеймо (2017)

Оригинальное название: The Marker
Страна: Великобритания
Режиссер: Джастин Эдгар
Автор сценария: Джастин Эдгар

Краткое содержание:
Главный герой фильма "Клеймо" Марли Дин Джейкобс, случайно убивший мать девятилетней девочки, отбывает срок заключения. Призрак её матери преследует его, постоянно напоминая ему о содеянном. Надеясь искупить свою вину, он, после выхода из тюрьмы, хочет найти эту девочку и помочь ей...

Продолжительность: 01:22:47
Перевод: многоголосый, закадровый
Качество: WEBRip

Видео: 480x208, 500 kb/s, 24 k/s
Звук: stereo , 96 kb/s, 44,1 khz
Размер: 598 MB

Mediainfo

Формат                                   : MPEG-4
Профиль формата                          : Base Media
Идентификатор кодека                     : isom (isom/iso2/avc1/mp41)
Размер файла                             : 354 Мбайт
Продолжительность                        : 1 ч. 22 м.
Режим общего битрейта                    : Переменный
Общий поток                              : 598 Кбит/сек
Программа кодирования                    : Lavf51.12.1

Видео
Идентификатор                            : 1
Формат                                   : AVC
Формат/Информация                        : Advanced Video Codec
Профиль формата                          : Baseline@L1.3
Параметр CABAC формата                   : Нет
Параметр ReFrames формата                : 1 кадр
Параметр GOP формата                     : M=1, N=12
Идентификатор кодека                     : avc1
Идентификатор кодека/Информация          : Advanced Video Coding
Продолжительность                        : 1 ч. 22 м.
Битрейт                                  : 497 Кбит/сек
Ширина                                   : 480 пикселей
Высота                                   : 208 пикселей
Соотношение сторон                       : 2,35:1
Режим частоты кадров                     : Постоянный
Частота кадров                           : 23,976 (23976/1000) кадра/сек
Цветовое пространство                    : YUV
Субдискретизация насыщенности            : 4:2:0
Битовая глубина                          : 8 бит
Тип развёртки                            : Прогрессивная
Бит/(Пиксели*Кадры)                      : 0.208
Размер потока                            : 295 Мбайт (83%)

Аудио
Идентификатор                            : 2
Формат                                   : AAC
Формат/Информация                        : Advanced Audio Codec
Профиль формата                          : LC
Идентификатор кодека                     : 40
Продолжительность                        : 1 ч. 22 м.
Вид битрейта                             : Переменный
Битрейт                                  : 96,0 Кбит/сек
Каналы                                   : 2 канала
Расположение каналов                     : Front: L R
Частота                                  : 44,1 КГц
Частота кадров                           : 43,066 кадра/сек (1024 spf)
Метод сжатия                             : С потерями
Размер потока                            : 56,8 Мбайт (16%)


Клеймо (2017) адаптирован для скачивания и просмотра на телефонах, планшетах, смартфонах андроид

Смотреть онлайн Клеймо (2017) на андроид

Видео


Трейлер

Смотреть онлайн Клеймо (2017)
Плеер

Смотреть онлайн Клеймо (2017)



СКАЧАТЬ ФИЛЬМ


НАЖАВ НА ЛЮБУЮ УДОБНУЮ ДЛЯ ВАС КНОПОЧКУ, ВЫ ПОМОГАЕТЕ САЙТУ РАЗВИВАТЬСЯ И НАПОЛНЯТЬСЯ НОВЫМИ ФИЛЬМАМИ МУЛЬТФИЛЬМАМИ И СЕРИАЛАМИ

У вас недостаточно прав для добавления комментариев.

Клеймо (2017) | кпк
Клеймо (2017) скачать на телефон планшет андроид на 7ba ru, anwap ru, anwap ru org, kape cc https://drop.me/Mv7WxG
Клеймо (2017) | | 2017-11-06 14:40:47 | | триллер | http://cinemaphone.ru/images/logo.png | Главный герой фильма "Клеймо" Марли Дин Джейкобс, случайно убивший мать девятилетней девочки, отбывает срок заключения. Призрак её матери преследует его | Фредерик Шмидт, Ана Улару, Джон Ханна, Йен Шарп, Джек МакКаллен, Саймон Лоу, Патрик Коннолли, Бэрри Аирд, Скай Лоури, Космо Джарвис