2:22 (2017) на телефон планшет

1 1 1 1 1 Рейтинг 2.75 /4
2:22 (2017)

 

Оригинальное название: 2:22
Год выпуска: 2017
Страна: США
Режиссёр: Пол Карри

Краткое содержание:
2:22 по полудню. Безоблачное небо внезапно озаряет мощная световая вспышка. Приборы навигации выходят из строя. Два пассажирских самолета неизбежно должны столкнуться в воздухе. В последнее мгновение опытный авиадиспетчер Дилан успевает развести маршруты, но с этой минуты его жизнь не может быть прежней. В поисках страшной правды Дилан знакомится с таинственной девушкой по имени Сара, вместе с которой он открывает зловещую тайну пересечения судеб...

Продолжительность: 01:38:54
Перевод: Дублированный
Качество: WEB-DLRip-AVC

Видео: 480x208, 500 kb/s, 24 k/s
Звук: stereo , 96 kb/s, 44,1 khz
Размер: 428 MB

Mediainfo

Формат                                   : MPEG-4
Профиль формата                          : Base Media
Идентификатор кодека                     : isom (isom/iso2/avc1/mp41)
Размер файла                             : 428 Мбайт
Продолжительность                        : 1 ч. 38 м.
Режим общего битрейта                    : Переменный
Общий поток                              : 605 Кбит/сек
Название фильма                          : 2.22.2017   #TorpedoUK#

Видео
Идентификатор                            : 1
Формат                                   : AVC
Формат/Информация                        : Advanced Video Codec
Профиль формата                          : Baseline@L1.3
Параметр CABAC формата                   : Нет
Параметр ReFrames формата                : 1 кадр
Параметр GOP формата                     : M=1, N=12
Идентификатор кодека                     : avc1
Идентификатор кодека/Информация          : Advanced Video Coding
Продолжительность                        : 1 ч. 38 м.
Битрейт                                  : 504 Кбит/сек
Ширина                                   : 480 пикселей
Высота                                   : 208 пикселей
Соотношение сторон                       : 2,40:1
Режим частоты кадров                     : Постоянный
Частота кадров                           : 23,976 (23976/1000) кадра/сек
Цветовое пространство                    : YUV
Субдискретизация насыщенности            : 4:2:0
Битовая глубина                          : 8 бит
Тип развёртки                            : Прогрессивная
Бит/(Пиксели*Кадры)                      : 0.211
Размер потока                            : 357 Мбайт (83%)
Язык                                     : English

Аудио
Идентификатор                            : 2
Формат                                   : AAC
Формат/Информация                        : Advanced Audio Codec
Профиль формата                          : LC
Идентификатор кодека                     : 40
Продолжительность                        : 1 ч. 38 м.
Вид битрейта                             : Переменный
Битрейт                                  : 96,0 Кбит/сек
Каналы                                   : 2 канала
Расположение каналов                     : Front: L R
Частота                                  : 44,1 КГц
Частота кадров                           : 43,066 кадра/сек (1024 spf)
Метод сжатия                             : С потерями
Размер потока                            : 67,9 Мбайт (16%)
Язык                                     : Russian


2:22 (2017) адаптирован для скачивания и просмотра на телефонах, планшетах, смартфонах андроид

Смотреть онлайн 2:22 (2017) на андроид

Видео


Трейлер

Смотреть онлайн 2:22 (2017)
Плеер

Смотреть онлайн 2:22 (2017)

Скачать фильм 2:22 (2017) на телефон планшет смартфон андроид




СКАЧАТЬ ФИЛЬМ


НАЖАВ НА ЛЮБУЮ УДОБНУЮ ДЛЯ ВАС КНОПОЧКУ, ВЫ ПОМОГАЕТЕ САЙТУ РАЗВИВАТЬСЯ И НАПОЛНЯТЬСЯ НОВЫМИ ФИЛЬМАМИ МУЛЬТФИЛЬМАМИ И СЕРИАЛАМИ

У вас недостаточно прав для добавления комментариев.

2:22 (2017) | кпк
2:22 (2017) скачать на телефон планшет андроид на 7ba ru, anwap ru, anwap ru org, kape cc https://drop.me/By0KpM
2:22 (2017) | | 2017-07-20 15:42:48 | | триллер | http://cinemaphone.ru/images/logo.png | 2:22 по полудню. Безоблачное небо внезапно озаряет мощная световая вспышка. Приборы навигации выходят из строя | Тереза Палмер, Микил Хаусмен, Сэм Рид, Мейв Дермоди, Реми Хий, Симона Кэссел, Керри Армстронг, Карма Шэрон, Джон Уотерс (I), Кэти МакКоннелл