12 футов глубины (2016) на телефон планшет


1 1 1 1 1 Рейтинг 3.40 /5
12 футов глубины

Оригинальное название: The Deep End
Страна: США
Режиссёр: Мэтт Эскандари

Две сестры после долгого расставания встречаются в бассейне, где провели большую часть своего детства. Впереди праздничные выходные, и так много нужно рассказать друг другу. День заканчивается и бассейн закрывается. Одна из сестёр обнаружила пропажу обручального кольца, которое загадочным образом оказалось на дне бассейна. Пытаясь достать кольцо, сёстры оказываются в смертельной ловушке.

Продолжительность: 01:25:24
Перевод: Одноголосый
Качество: WEBDLRip
Размер: 374.13 Mb

Формат : MPEG-4
Профиль формата : Base Media
Идентификатор кодека : isom (isom/iso2/mp41)
Размер файла : 374 Мбайт
Продолжительность : 1 ч. 25 м.
Режим общего битрейта : Переменный
Общий поток : 612 Кбит/сек

Видео
Идентификатор : 1
Формат : MPEG-4 Visual
Профиль формата : Simple@L1
Параметр BVOP формата : Нет
Параметр QPel формата : Нет
Параметр GMC формата : Без точки перехода
Параметр матрицы формата : Default (H.263)
Идентификатор кодека : 20
Продолжительность : 1 ч. 25 м.
Битрейт : 512 Кбит/сек
Ширина : 480 пикселей
Высота : 208 пикселей
Соотношение сторон : 16:9
Режим частоты кадров : Постоянный
Частота кадров : 23,976 (23976/1000) кадра/сек
Цветовое пространство : YUV
Субдискретизация насыщенности : 4:2:0
Битовая глубина : 8 бит
Тип развёртки : Прогрессивная
Метод сжатия : С потерями
Бит/(Пиксели*Кадры) : 0.214
Размер потока : 313 Мбайт (84%)

Аудио
Идентификатор : 2
Формат : AAC
Формат/Информация : Advanced Audio Codec
Профиль формата : LC
Идентификатор кодека : 40
Продолжительность : 1 ч. 25 м.
Вид битрейта : Переменный
Битрейт : 96,0 Кбит/сек
Каналы : 2 канала
Расположение каналов : Front: L R
Частота : 44,1 КГц
Частота кадров : 43,066 кадра/сек (1024 spf)
Метод сжатия : С потерями
Размер потока : 58,6 Мбайт (16%)


12 футов глубины (2016) адаптирован для скачивания и просмотра на телефонах, планшетах, смартфонах андроид

Смотреть онлайн 12 футов глубины (2016) на андроид

Видео


Трейлер

Смотреть онлайн 12 футов глубины (2016)
Плеер

Смотреть онлайн 12 футов глубины (2016)

Скачать фильм 12 футов глубины (2016) на телефон планшет смартфон андроид



СКАЧАТЬ ФИЛЬМ


НАЖАВ НА ЛЮБУЮ УДОБНУЮ ДЛЯ ВАС КНОПОЧКУ, ВЫ ПОМОГАЕТЕ САЙТУ РАЗВИВАТЬСЯ И НАПОЛНЯТЬСЯ НОВЫМИ ФИЛЬМАМИ МУЛЬТФИЛЬМАМИ И СЕРИАЛАМИ

У вас недостаточно прав для добавления комментариев.

12 футов глубины (2016)
12 футов глубины (2016) скачать на телефон планшет андроид на 7ba ru, anwap ru, anwap ru org, kape cc https://drop.me/aLlbpa
12 футов глубины (2016) | | 2017-06-23 20:30:56 | | триллер | http://cinemaphone.ru/images/logo.png | Одна из сестёр обнаружила пропажу обручального кольца, которое загадочным образом оказалось на дне бассейна. Пытаясь достать кольцо, сёстры оказываются в смертельной ловушке. | Тобин Белл, Дайан Фарр, Нора-Джейн Нун, Александра Парк, Дональд Принц, Кристиан Блэкберн, Matthew Ryan Michaels, Dogen Eyeler