Падение Лондона (2016) на телефон планшет

1 1 1 1 1 Рейтинг 4.14 /7
Падение Лондона

Оригинальное название: London Has Fallen
Страна: США, Великобритания, Болгария
Режиссер: Бабак Наджафи

Краткое содержание:
При странных обстоятельствах, в Лондоне погибает премьер-министр Великобритании. Что бы почтить память погибшего, в Лондон съезжаются руководители западных государств. Никто из них не мог даже предположить, что всё это было спланировано террористической организацией лишь с одной  целью - нанести удар по всем руководителям прогрессивных государств в одно время в одном месте, что должно было повлечь хаос и неразбериху в мировой политике. Взрывы и стрельба разорвали вековую тишину Лондона, на улицах стало опасно находиться. Но не все политики оказались такими беспомощными. Как всегда, мир сможет спасти только американский президент вместе с двумя секретными агентами.

Фильм Падение Лондона адаптирован для скачивания и просмотра на  телефонах , планшетах, смартфонах андроид

Продолжительность: 01:38:24
Перевод: дублированный
Качество: DVDRip

Видео: 320х176, 390 kb/s, 23.976 k/s
Звук: stereo , 56 kb/s, 44,1 khz
Размер: 324 МB

MediaInfo

Формат                                   : AVI
Формат/Информация                        : Audio Video Interleave
Размер файла                             : 324 Мбайт
Продолжительность                        : 1 ч. 37 м.
Общий поток                              : 465 Кбит/сек
Программа кодирования                    : Lavf54.42.100

Видео
Идентификатор                            : 0
Формат                                   : xvid
Идентификатор кодека                     : xvid
Продолжительность                        : 1 ч. 37 м.
Битрейт                                  : 397 Кбит/сек
Ширина                                   : 320 пикселей
Высота                                   : 176 пикселей
Соотношение сторон                       : 2,35:1
Частота кадров                           : 24,000 кадра/сек
Тип развёртки                            : Прогрессивная
Бит/(Пиксели*Кадры)                      : 0.294
Размер потока                            : 276 Мбайт (85%)

Аудио
Идентификатор                            : 1
Формат                                   : MPEG Audio
Версия формата                           : Version 1
Профиль формата                          : Layer 3
Режим                                    : Joint stereo
Расширение режима                        : MS Stereo
Идентификатор кодека                     : 55
Идентификатор кодека/Подсказка           : MP3
Продолжительность                        : 1 ч. 37 м.
Вид битрейта                             : Постоянный
Битрейт                                  : 56,0 Кбит/сек
Каналы                                   : 2 канала
Частота                                  : 44,1 КГц
Метод сжатия                             : С потерями
Размер потока                            : 39,0 Мбайт (12%)
Выравнивание                             : Соединение по промежуткам
Продолжительность промежутка             : 26  мс. (0,63 видеокадр)
Время предзагрузки промежутка            : 78  мс.

Скачать фильм Падение Лондона на телефон планшет смартфон андроид


Падение Лондона (2016) адаптирован для скачивания и просмотра на телефонах, планшетах, смартфонах андроид

Смотреть онлайн Падение Лондона (2016) на андроид

Видео


Трейлер

Смотреть онлайн Падение Лондона (2016)
Плеер

Смотреть онлайн Падение Лондона (2016)




НАЖАВ НА ЛЮБУЮ УДОБНУЮ ДЛЯ ВАС КНОПОЧКУ, ВЫ ПОМОГАЕТЕ САЙТУ РАЗВИВАТЬСЯ И НАПОЛНЯТЬСЯ НОВЫМИ ФИЛЬМАМИ МУЛЬТФИЛЬМАМИ И СЕРИАЛАМИ

У вас недостаточно прав для добавления комментариев.

Падение Лондона (2016) | кпк
Падение Лондона (2016) скачать на телефон планшет андроид на 7ba ru, anwap ru, anwap ru org, kape cc
Падение Лондона (2016) | | 2016-05-15 12:48:42 | | триллер | http://cinemaphone.ru/images/logo.png | При странных обстоятельствах, в Лондоне погибает премьер-министр Великобритании. Что бы почтить память погибшего, в Лондон съезжаются руководители западных государств | Джерард Батлер, Аарон Экхарт, Морган Фриман, Алон Абутбул, Валид Зуэйтер, Адель Беншериф, Мехди Дехби