Мы – монстры (2017) на телефон планшет

1 1 1 1 1 Рейтинг 4.25 /4
Мы – монстры (2017)

Оригинальное название: Happy Family
Срана: Великобритания, Германия
Режиссёр: Хольгер Таппе

Краткое содержание:
Герои мультфильма "Мы – монстры" - семейство Уишбоун. Все они как один, считают себя самыми несчастными людьми в мире. Каждый день, они как и другие люди сталкиваются с жизненными проблемами. Только для всех это обычные жизненные дела, а члены несчастной семейки считают это вселенской трагедией.
Готовясь к празднику Хэллоуин, Уишбоуны занялись поиском праздничных костюмов и случайно натыкаются на магазин, владельцем которого являлся сам граф Дракула.
Посмеявшись над тем, каким именем ей представился владелец магазина, Эмма даже не представляла, какую беду навлекла на своё семейство.
Решив отомстить обидчикам, Дракула приказывает ведьме превратить Эмму в вампира, главу семейства, Фрэнка в Франкенштейна, а их детей Фей и Макс превратить в мумию и оборотня. Так как заклятие могло подействовать только на глубоко несчастных людей, то и расколдоваться они смогут лишь тогда, когда станут полностью счастливыми.

Продолжительность: 01:26:18
Перевод: дублированный
Качество: TS

Видео: 480x208, 500 kb/s, 24 k/s
Звук: stereo , 96 kb/s, 44,1 khz
Размер: 374.28 MB

Mediainfo

Формат                                   : MPEG-4
Профиль формата                          : Base Media
Идентификатор кодека                     : isom (isom/iso2/avc1/mp41)
Размер файла                             : 374 Мбайт
Продолжительность                        : 1 ч. 26 м.
Режим общего битрейта                    : Переменный
Общий поток                              : 606 Кбит/сек
Программа кодирования                    : Lavf51.12.1

Видео
Идентификатор                            : 1
Формат                                   : AVC
Формат/Информация                        : Advanced Video Codec
Профиль формата                          : Baseline@L1.3
Параметр CABAC формата                   : Нет
Параметр ReFrames формата                : 1 кадр
Параметр GOP формата                     : M=1, N=12
Идентификатор кодека                     : avc1
Идентификатор кодека/Информация          : Advanced Video Coding
Продолжительность                        : 1 ч. 26 м.
Битрейт                                  : 506 Кбит/сек
Ширина                                   : 480 пикселей
Высота                                   : 208 пикселей
Соотношение сторон                       : 2,813
Режим частоты кадров                     : Постоянный
Частота кадров                           : 23,976 (23976/1000) кадра/сек
Цветовое пространство                    : YUV
Субдискретизация насыщенности            : 4:2:0
Битовая глубина                          : 8 бит
Тип развёртки                            : Прогрессивная
Бит/(Пиксели*Кадры)                      : 0.211
Размер потока                            : 312 Мбайт (83%)

Аудио
Идентификатор                            : 2
Формат                                   : AAC
Формат/Информация                        : Advanced Audio Codec
Профиль формата                          : LC
Идентификатор кодека                     : 40
Продолжительность                        : 1 ч. 26 м.
Вид битрейта                             : Переменный
Битрейт                                  : 96,0 Кбит/сек
Каналы                                   : 2 канала
Расположение каналов                     : Front: L R
Частота                                  : 44,1 КГц
Частота кадров                           : 43,066 кадра/сек (1024 spf)
Метод сжатия                             : С потерями
Размер потока                            : 59,2 Мбайт (16%)


Мы – монстры (2017) адаптирован для скачивания и просмотра на телефонах, планшетах, смартфонах андроид

Смотреть онлайн Мы – монстры (2017) на андроид

Видео


Трейлер

Смотреть онлайн Мы – монстры (2017)
Плеер

Смотреть онлайн Мы – монстры (2017)

Скачать фильм Мы – монстры (2017) на телефон планшет смартфон андроид




СКАЧАТЬ ФИЛЬМ


НАЖАВ НА ЛЮБУЮ УДОБНУЮ ДЛЯ ВАС КНОПОЧКУ, ВЫ ПОМОГАЕТЕ САЙТУ РАЗВИВАТЬСЯ И НАПОЛНЯТЬСЯ НОВЫМИ ФИЛЬМАМИ МУЛЬТФИЛЬМАМИ И СЕРИАЛАМИ

У вас недостаточно прав для добавления комментариев.

Мы – монстры (2017) | кпк
Мы – монстры (2017) скачать на телефон планшет андроид на 7ba ru, anwap ru, anwap ru org, kape cc https://drop.me/M71wr2
Мы – монстры (2017) | | 2017-10-31 19:39:22 | | мультфильмы | http://cinemaphone.ru/images/logo.png | Герои мультфильма "Мы – монстры" - семейство Уишбоун. Все они как один, считают себя самыми несчастными людьми в мире. | Эмили Уотсон, Джейсон Айзекс, Ник Фрост, Джессика Браун-Финдли, Селия Имри, Кэтрин Тейт, Ethan Rouse, Ивэн Бэйли, Эмма Тейт, Джессика МакДональд