Сезон охоты 4: Страшно глупо на телефон планшет

1 1 1 1 1 Рейтинг 4.10 /10
Сезон охоты 4: Страшно глупо

Оригинальное название: Open Season: Scared Silly
Режиссер: Дэвид Фейсс

Краткое содержание:
В четвертой части мультфильма "Сезон охоты"  олень Элиот,  медведь - гризли Буг и вся их лесная братва попадают в совершенно новое и очень-очень смешное приключение.

Мультфильм Сезон охоты 4: Страшно глупо  адаптирован для скачивания и просмотра на  телефонах , планшетах, смартфонах андроид

Выпущено: США
Продолжительность: 01:24:45
Озвучивание: любительское многоголосное
Качество: HDRip

Видео: 320х240, 224 kb/s , 15 k/s
Звук: stereo , 75 kb/s ,44,1 khz
Размер: 362 MB

MediaInfo

Формат                                   : MPEG-4
Профиль формата                          : Base Media
Идентификатор кодека                     : isom (isom/iso2/mp41)
Размер файла                             : 185 Мбайт
Продолжительность                        : 1 ч. 25 м.
Режим общего битрейта                    : Постоянный
Общий поток                              : 302 Кбит/сек
Программа кодирования                    : Lavf56.25.101

Видео
Идентификатор                            : 1
Формат                                   : MPEG-4 Visual
Профиль формата                          : Simple@L1
Параметр BVOP формата                    : Нет
Параметр QPel формата                    : Нет
Параметр GMC формата                     : Без точки перехода
Параметр матрицы формата                 : Default (H.263)
Идентификатор кодека                     : 20
Продолжительность                        : 1 ч. 25 м.
Вид битрейта                             : Постоянный
Битрейт                                  : 224 Кбит/сек
Ширина                                   : 320 пикселей
Высота                                   : 240 пикселей
Соотношение сторон                       : 16:9
Режим частоты кадров                     : Постоянный
Частота кадров                           : 15,000 кадров/сек
Цветовое пространство                    : YUV
Субдискретизация насыщенности            : 4:2:0
Битовая глубина                          : 8 бит
Тип развёртки                            : Прогрессивная
Метод сжатия                             : С потерями
Бит/(Пиксели*Кадры)                      : 0.194
Размер потока                            : 137 Мбайт (74%)
Библиотека кодирования                   : Lavc56.26.100

Аудио
Идентификатор                            : 2
Формат                                   : AAC
Формат/Информация                        : Advanced Audio Codec
Профиль формата                          : LC
Идентификатор кодека                     : 40
Продолжительность                        : 1 ч. 25 м.
Вид битрейта                             : Постоянный
Битрейт                                  : 75,0 Кбит/сек
Каналы                                   : 2 канала
Расположение каналов                     : Front: L R
Частота                                  : 44,1 КГц
Частота кадров                           : 43,066 кадра/сек (1024 spf)
Метод сжатия                             : С потерями
Размер потока                            : 45,8 Мбайт (25%)
Default                                  : Да
Alternate group                          : 1

Скачать мультфильм Сезон охоты 4: Страшно глупо на телефон планшет смартфон андроид

Сезон охоты 4: Страшно глупо адаптирован для скачивания и просмотра на телефонах, планшетах, смартфонах андроид


Смотреть онлайн Сезон охоты 4: Страшно глупо на андроид

Видео


Трейлер

Смотреть онлайн Сезон охоты 4: Страшно глупо
Плеер

Смотреть онлайн Сезон охоты 4: Страшно глупо


Скачать с файлообменника


НАЖАВ НА ЛЮБУЮ УДОБНУЮ ДЛЯ ВАС КНОПОЧКУ, ВЫ ПОМОГАЕТЕ САЙТУ РАЗВИВАТЬСЯ И НАПОЛНЯТЬСЯ НОВЫМИ ФИЛЬМАМИ МУЛЬТФИЛЬМАМИ И СЕРИАЛАМИ

НЕ ЗНАЕТЕ КАК СКАЧАТЬ ?   ТОГДА ВАМ   СЮДА

Если ссылка на фильм битая, или фильм не качается: напишите об этом в комментариях

Спасибо за вашу помощь!

Добавить комментарий

Внимание! Гостям сайта запрещено вставлять в комментарии любые ссылки на сторонние ресурсы (они всё равно будут удалены)
Пишите по делу, этим Вы поможете другим пользователям в выборе фильма, а администрации - в улучшении сайта


Защитный код
Обновить

Сезон охоты 4: Страшно глупо | кпк
Сезон охоты 4: Страшно глупо скачать на телефон планшет андроид на 7ba ru, anwap ru, anwap ru org, kape cc
Сезон охоты 4: Страшно глупо | | 2016-03-01 22:52:15 | | мультфильмы | http://cinemaphone.ru/images/logo.png | В четвертой части мультфильма "Сезон охоты" олень Элиот, медведь - гризли Буг и вся их лесная братва попадают в совершенно новое и очень-очень смешное приключение | Кэтлин Барр, Гари Чок, Тревор Дивэлл, Донни Джеймс Лукас, Мелисса Штурм, Мэттью В. Тейлор