Новизна (2017) на телефон планшет

1 1 1 1 1 Рейтинг 3.67 /6
Новизна (2017)

Оригинальное название: Newness
Страна: США
Режиссер: Дрейк Доримус
Автор сценария: Бен Джонс

Краткое содержание:
Пара свободных минут, доступ в интернет и идеальное приложение для знакомств — всё что нужно для быстрого поиска партнера на пару часов. XXI век. Своеобразная рулетка для любителей свиданий и дружеского секса без обязательств. Усилий никаких не требуется, вам остается только перемещаться по экрану телефона или планшета легким скольжением пальцев, привередливо сжав губы. Дефицита вариантов нет.
Одиночество в сети или зависимость? Случайная ночная встреча Габи и Мартина на пару часов, казалось бы, не должна была ничего изменить. Но что-то пошло не так. И быстрое знакомство переросло в серьезные отношения, к которым, как оказалось, не были готовы ни он, ни она...

Продолжительность: 01:57:40
Перевод: многоголосый, закадровый
Качество: WEBRip

Видео: 480x208, 500 kb/s, 24 k/s
Звук: stereo , 96 kb/s, 44,1 khz
Размер: 510 MB

Mediainfo

Формат                                   : MPEG-4
Профиль формата                          : Base Media
Идентификатор кодека                     : isom (isom/iso2/avc1/mp41)
Размер файла                             : 510 Мбайт
Продолжительность                        : 1 ч. 57 м.
Режим общего битрейта                    : Переменный
Общий поток                              : 606 Кбит/сек
Программа кодирования                    : Lavf51.12.1

Видео
Идентификатор                            : 1
Формат                                   : AVC
Формат/Информация                        : Advanced Video Codec
Профиль формата                          : Baseline@L1.3
Параметр CABAC формата                   : Нет
Параметр ReFrames формата                : 1 кадр
Параметр GOP формата                     : M=1, N=12
Идентификатор кодека                     : avc1
Идентификатор кодека/Информация          : Advanced Video Coding
Продолжительность                        : 1 ч. 57 м.
Битрейт                                  : 505 Кбит/сек
Ширина                                   : 480 пикселей
Высота                                   : 208 пикселей
Соотношение сторон                       : 2,35:1
Режим частоты кадров                     : Постоянный
Частота кадров                           : 23,976 (23976/1000) кадра/сек
Цветовое пространство                    : YUV
Субдискретизация насыщенности            : 4:2:0
Битовая глубина                          : 8 бит
Тип развёртки                            : Прогрессивная
Бит/(Пиксели*Кадры)                      : 0.211
Размер потока                            : 425 Мбайт (83%)

Аудио
Идентификатор                            : 2
Формат                                   : AAC
Формат/Информация                        : Advanced Audio Codec
Профиль формата                          : LC
Идентификатор кодека                     : 40
Продолжительность                        : 1 ч. 57 м.
Вид битрейта                             : Переменный
Битрейт                                  : 96,0 Кбит/сек
Каналы                                   : 2 канала
Расположение каналов                     : Front: L R
Частота                                  : 44,1 КГц
Частота кадров                           : 43,066 кадра/сек (1024 spf)
Метод сжатия                             : С потерями
Размер потока                            : 80,8 Мбайт (16%)


Новизна (2017) адаптирован для скачивания и просмотра на телефонах, планшетах, смартфонах андроид

Смотреть онлайн Новизна (2017) на андроид

Видео


Трейлер

Смотреть онлайн Новизна (2017)
Плеер

Смотреть онлайн Новизна (2017)



СКАЧАТЬ ФИЛЬМ


НАЖАВ НА ЛЮБУЮ УДОБНУЮ ДЛЯ ВАС КНОПОЧКУ, ВЫ ПОМОГАЕТЕ САЙТУ РАЗВИВАТЬСЯ И НАПОЛНЯТЬСЯ НОВЫМИ ФИЛЬМАМИ МУЛЬТФИЛЬМАМИ И СЕРИАЛАМИ

У вас недостаточно прав для добавления комментариев.

Новизна (2017) | кпк
Новизна (2017) скачать на телефон планшет андроид на 7ba ru, anwap ru, anwap ru org, kape cc https://drop.me/omVvAZ
Новизна (2017) | | 2017-11-06 14:01:43 | | мелодрама | http://cinemaphone.ru/images/logo.png | Пара свободных минут, доступ в интернет и идеальное приложение для знакомств — всё что нужно для быстрого поиска партнера на пару часов. XXI век. Своеобразная рулетка для любителей свиданий и дружеского секса без обязательств | Николас Холт, Лайа Коста, Дэнни Хьюстон, Мэттью Грей Гублер, Люк Байбак, Рене Каде, Эва Сеха, Эльза Кокерел, Кортни Итон