Пятьдесят оттенков черного (2016) на телефон планшет

1 1 1 1 1 Рейтинг 3.50 /8

Пятьдесят оттенков черного

Оригинальное название: Fifty Shades of Black
Год выхода: 2016
Страна: США
Режиссер: Майкл Тиддес

Краткое содержание:
Само название фильма созвучно с нашумевшим недавно фильмом "Пятьдесят оттенков серого". И это не спроста, ведь фильм "Пятьдесят оттенков черного" является пародией на известную драму. В этой комедии высмеиваются современные стереотипы из жизни чернокожих и их любовных отношений.
Главный герой пародии Блэк, так же как и герой фильма оригинала - Кристиан Грэй, знакомится с молоденькой студенткой. Их отношения очень скоро дошли до стадии интимных. Но во время любовных утех, с элементами извращения, он попадает в различные нелепые ситуации.
В общем, всё происходит так же как и в оригинале, но при этом принимает более гротескные формы. Но при всём этом юмор в картине оказался на должном уровне.

Фильм Пятьдесят оттенков черного адаптирован для скачивания и просмотра на  телефонах , планшетах, смартфонах андроид

Продолжительность: 01:24:22
Перевод: дублированный
Качество: DVDRip

Видео: 320x176, 350 kb/s , 24 k/s
Звук: stereo , 64 kb/s ,44,1 khz
Размер: 251 MB

MediaInfo

Формат                                   : MPEG-4
Профиль формата                          : Base Media
Идентификатор кодека                     : isom (isom/iso2/mp41)
Размер файла                             : 251 Мбайт
Продолжительность                        : 1 ч. 24 м.
Режим общего битрейта                    : Переменный
Общий поток                              : 414 Кбит/сек
Программа кодирования                    : Lavf54.42.100

Видео
Идентификатор                            : 1
Формат                                   : MPEG-4 Visual
Профиль формата                          : Simple@L1
Параметр BVOP формата                    : Нет
Параметр QPel формата                    : Нет
Параметр GMC формата                     : Без точки перехода
Параметр матрицы формата                 : Default (H.263)
Идентификатор кодека                     : 20
Продолжительность                        : 1 ч. 24 м.
Вид битрейта                             : Переменный
Битрейт                                  : 345 Кбит/сек
Максимальный битрейт                     : 350 Кбит/сек
Ширина                                   : 320 пикселей
Высота                                   : 176 пикселей
Соотношение сторон                       : 2,35:1
Соотношение сторон в оригинале           : 2,35:1
Режим частоты кадров                     : Постоянный
Частота кадров                           : 24,000 кадра/сек
Цветовое пространство                    : YUV
Субдискретизация насыщенности            : 4:2:0
Битовая глубина                          : 8 бит
Тип развёртки                            : Прогрессивная
Метод сжатия                             : С потерями
Бит/(Пиксели*Кадры)                      : 0.255
Размер потока                            : 209 Мбайт (83%)
Библиотека кодирования                   : Lavc54.78.101

Аудио
Идентификатор                            : 2
Формат                                   : AAC
Формат/Информация                        : Advanced Audio Codec
Профиль формата                          : LC
Идентификатор кодека                     : 40
Продолжительность                        : 1 ч. 24 м.
Вид битрейта                             : Постоянный
Битрейт                                  : 64,0 Кбит/сек
Каналы                                   : 2 канала
Расположение каналов                     : Front: L R
Частота                                  : 44,1 КГц
Частота кадров                           : 43,066 кадра/сек (1024 spf)
Метод сжатия                             : С потерями
Размер потока                            : 38,8 Мбайт (15%)
Default                                  : Да
Alternate group                          : 1

Скачать фильм Пятьдесят оттенков черного на телефон планшет смартфон андроид


Пятьдесят оттенков черного (2016) адаптирован для скачивания и просмотра на телефонах, планшетах, смартфонах андроид

Смотреть онлайн Пятьдесят оттенков черного (2016) на андроид

Видео


Трейлер

Смотреть онлайн Пятьдесят оттенков черного (2016)
Плеер

Смотреть онлайн Пятьдесят оттенков черного (2016)




НАЖАВ НА ЛЮБУЮ УДОБНУЮ ДЛЯ ВАС КНОПОЧКУ, ВЫ ПОМОГАЕТЕ САЙТУ РАЗВИВАТЬСЯ И НАПОЛНЯТЬСЯ НОВЫМИ ФИЛЬМАМИ МУЛЬТФИЛЬМАМИ И СЕРИАЛАМИ

У вас недостаточно прав для добавления комментариев.

Пятьдесят оттенков черного (2016) | кпк
Пятьдесят оттенков черного (2016) скачать на телефон планшет андроид на 7ba ru, anwap ru, anwap ru org, kape cc
Пятьдесят оттенков черного (2016) | | 2016-02-24 11:17:01 | | комедия | http://cinemaphone.ru/images/logo.png | Скачать фильм Пятьдесят оттенков черного на телефон планшет смартфон андроид.Само название фильма созвучно с нашумевшим недавно фильмом "Пятьдесят оттенков серого" | Марлон Уайанс, Кали Хоук, Фред Уиллард, Майк Эппс, Эффион Крокетт, Джейн Сеймур, Флоренс Хендерсон, Эндрю Бэчелор, Дженни Зигрино, Кейт Лэнг Джонсон