Образцовый самец 2 (2016) на телефон планшет

1 1 1 1 1 Рейтинг 3.00 /3
Образцовый самец 2 (2016)

Оригинальное название: Zoolander 2
Год выпуска: 2016
Страна: США
Режиссер: Бен Стиллер

Краткое содержание:
Прошло 15 лет со дня выхода первой части фильма Образцовый самец (2001) . И снова на экране наши герои-модники и непримиримые соперники - Дерек Зуландер и Хэнсел. Но как говорится беда объединяет и вот заклятые друзья помогают в расследовании серии убийств знаменитостей. Все убийства выполнены как под копирку, что наводит на мысль о маньяке, преследующем знаменитостей.
Смогут ли Зуландер и Хэнсел раскрыть эти убийства и выйти на след преступника и вернуть себе былую славу?

Фильм Образцовый самец 2  адаптирован для скачивания и просмотра на  телефонах , планшетах, смартфонах андроид

Озвучивание: дублированное
Продолжительность: 01:36:23
Качество: WEB-DLRip

Видео: 320x240, 224 kb/s , 15 k/s
Звук: stereo , 128 kb/s ,48 khz
Размер: 208 МB

MediaInfo

Формат                                   : MPEG-4
Профиль формата                          : Base Media
Идентификатор кодека                     : isom (isom/iso2/mp41)
Размер файла                             : 208 Мбайт
Продолжительность                        : 1 ч. 36 м.
Режим общего битрейта                    : Постоянный
Общий поток                              : 302 Кбит/сек
Программа кодирования                    : Lavf56.25.101

Видео
Идентификатор                            : 1
Формат                                   : MPEG-4 Visual
Профиль формата                          : Simple@L1
Параметр BVOP формата                    : Нет
Параметр QPel формата                    : Нет
Параметр GMC формата                     : Без точки перехода
Параметр матрицы формата                 : Default (H.263)
Идентификатор кодека                     : 20
Продолжительность                        : 1 ч. 36 м.
Вид битрейта                             : Постоянный
Битрейт                                  : 224 Кбит/сек
Ширина                                   : 320 пикселей
Высота                                   : 240 пикселей
Соотношение сторон                       : 16:9
Режим частоты кадров                     : Постоянный
Частота кадров                           : 15,000 кадров/сек
Цветовое пространство                    : YUV
Субдискретизация насыщенности            : 4:2:0
Битовая глубина                          : 8 бит
Тип развёртки                            : Прогрессивная
Метод сжатия                             : С потерями
Бит/(Пиксели*Кадры)                      : 0.194
Размер потока                            : 154 Мбайт (74%)
Библиотека кодирования                   : Lavc56.26.100

Аудио
Идентификатор                            : 2
Формат                                   : AAC
Формат/Информация                        : Advanced Audio Codec
Профиль формата                          : LC
Идентификатор кодека                     : 40
Продолжительность                        : 1 ч. 36 м.
Вид битрейта                             : Постоянный
Битрейт                                  : 75,0 Кбит/сек
Каналы                                   : 2 канала
Расположение каналов                     : Front: L R
Частота                                  : 44,1 КГц
Частота кадров                           : 43,066 кадра/сек (1024 spf)
Метод сжатия                             : С потерями
Размер потока                            : 51,7 Мбайт (25%)
Default                                  : Да
Alternate group                          : 1

Скачать фильм Образцовый самец 2 (2016) на телефон планшет смартфон андроид

Образцовый самец 2 (2016) адаптирован для скачивания и просмотра на телефонах, планшетах, смартфонах андроид


Смотреть онлайн Образцовый самец 2 (2016) на андроид

Видео


Трейлер

Смотреть онлайн Образцовый самец 2 (2016)
Плеер

Смотреть онлайн Образцовый самец 2 (2016)


Скачать с файлообменника


НАЖАВ НА ЛЮБУЮ УДОБНУЮ ДЛЯ ВАС КНОПОЧКУ, ВЫ ПОМОГАЕТЕ САЙТУ РАЗВИВАТЬСЯ И НАПОЛНЯТЬСЯ НОВЫМИ ФИЛЬМАМИ МУЛЬТФИЛЬМАМИ И СЕРИАЛАМИ

НЕ ЗНАЕТЕ КАК СКАЧАТЬ ?   ТОГДА ВАМ   СЮДА

Если ссылка на фильм битая, или фильм не качается: напишите об этом в комментариях

Спасибо за вашу помощь!

Добавить комментарий

Внимание! Гостям сайта запрещено вставлять в комментарии любые ссылки на сторонние ресурсы (они всё равно будут удалены)
Пишите по делу, этим Вы поможете другим пользователям в выборе фильма, а администрации - в улучшении сайта


Защитный код
Обновить

Образцовый самец 2 (2016) | кпк
Образцовый самец 2 (2016) скачать на телефон планшет андроид на 7ba ru, anwap ru, anwap ru org, kape cc
Образцовый самец 2 (2016) | | 2016-05-04 11:52:00 | | комедия | http://cinemaphone.ru/images/logo.png | Скачать фильм Образцовый самец 2 на телефон планшет смартфон андроид.И снова на экране наши герои-модники и непримиримые соперники - Дерек Зуландер и Хэнсел | Бен Стиллер, Кристен Уиг, Оливия Манн, Уилл Феррелл, Пенелопа Крус, Оуэн Уилсон, Кристин Тейлор, Ким Кардашьян Уэст, Билли Зейн, Канье УэстПродюсер: Стюарт Корнфелд, Скотт Рудин, Бен Стиллер