Тор: Рагнарёк (2017) на телефон планшет

1 1 1 1 1 Рейтинг 4.00 /8
Тор: Рагнарёк (2017)

Оригинальное название: Thor: Ragnarok
Страна: США
Режиссер: Тайка Вайтити

Краткое содержание:
Вернувшись в Асгард в поисках таинственного врага, ведущего охоту на Камни Бесконечности, Тор обнаруживает, что действия его брата Локи, захватившего трон Асгарда, привели к приближению наиболее страшного события — Рагнарёка. По легенде, это ознаменует последнюю битву Асгарда, последствием которой станет его полное уничтожение. В попытке предотвратить это событие, Тору предстоит прибегнуть к помощи своего товарища из Мстителей — Халка. Вместе, им предстоит столкнуться лицом к лицу со злейшим врагом всех девяти миров — огненным демоном Суртуром, целью которого является исполнение пророчества о Рагнарёке и уничтожение девяти миров.

Продолжительность: 02:00:45
Перевод: многоголосый
Качество: TS

Видео: 480x208, 500 kb/s, 24 k/s
Звук: stereo , 96 kb/s, 44,1 khz
Размер: 518 MB

Mediainfo

Формат                                   : MPEG-4
Профиль формата                          : Base Media
Идентификатор кодека                     : isom (isom/iso2/avc1/mp41)
Размер файла                             : 518 Мбайт
Продолжительность                        : 2 ч. 0 м.
Режим общего битрейта                    : Переменный
Общий поток                              : 600 Кбит/сек
Программа кодирования                    : Lavf51.12.1

Видео
Идентификатор                            : 1
Формат                                   : AVC
Формат/Информация                        : Advanced Video Codec
Профиль формата                          : Baseline@L1.3
Параметр CABAC формата                   : Нет
Параметр ReFrames формата                : 1 кадр
Параметр GOP формата                     : M=1, N=12
Идентификатор кодека                     : avc1
Идентификатор кодека/Информация          : Advanced Video Coding
Продолжительность                        : 2 ч. 0 м.
Битрейт                                  : 500 Кбит/сек
Ширина                                   : 480 пикселей
Высота                                   : 208 пикселей
Соотношение сторон                       : 2,25:1
Режим частоты кадров                     : Постоянный
Частота кадров                           : 23,976 (23976/1000) кадра/сек
Цветовое пространство                    : YUV
Субдискретизация насыщенности            : 4:2:0
Битовая глубина                          : 8 бит
Тип развёртки                            : Прогрессивная
Бит/(Пиксели*Кадры)                      : 0.209
Размер потока                            : 432 Мбайт (83%)

Аудио
Идентификатор                            : 2
Формат                                   : AAC
Формат/Информация                        : Advanced Audio Codec
Профиль формата                          : LC
Идентификатор кодека                     : 40
Продолжительность                        : 2 ч. 0 м.
Вид битрейта                             : Переменный
Битрейт                                  : 96,0 Кбит/сек
Каналы                                   : 2 канала
Расположение каналов                     : Front: L R
Частота                                  : 44,1 КГц
Частота кадров                           : 43,066 кадра/сек (1024 spf)
Метод сжатия                             : С потерями
Размер потока                            : 82,9 Мбайт (16%)


Тор: Рагнарёк (2017) адаптирован для скачивания и просмотра на телефонах, планшетах, смартфонах андроид

Смотреть онлайн Тор: Рагнарёк (2017) на андроид

Видео


Трейлер

Смотреть онлайн Тор: Рагнарёк (2017)
Плеер

Смотреть онлайн Тор: Рагнарёк (2017)



СКАЧАТЬ ФИЛЬМ


НАЖАВ НА ЛЮБУЮ УДОБНУЮ ДЛЯ ВАС КНОПОЧКУ, ВЫ ПОМОГАЕТЕ САЙТУ РАЗВИВАТЬСЯ И НАПОЛНЯТЬСЯ НОВЫМИ ФИЛЬМАМИ МУЛЬТФИЛЬМАМИ И СЕРИАЛАМИ

У вас недостаточно прав для добавления комментариев.

Тор: Рагнарёк (2017) | кпк
Тор: Рагнарёк (2017) скачать на телефон планшет андроид на 7ba ru, anwap ru, anwap ru org, kape cc https://drop.me/M0xy3X
Тор: Рагнарёк (2017) | | 2017-11-06 14:18:03 | | фентези | http://cinemaphone.ru/images/logo.png | Вернувшись в Асгард в поисках таинственного врага, ведущего охоту на Камни Бесконечности, Тор обнаруживает, что действия его брата Локи | Крис Хемсворт, Том Хиддлстон, Идрис Эльба, Энтони Хопкинс, Кейт Бланшетт, Тесса Томпсон, Джефф Голдблюм, Карл Урбан, Марк Руффало, Бенедикт Камбербэтч