Сингулярность (2017) на телефон планшет

1 1 1 1 1 Рейтинг 3.67 /3
Сингулярность (2017)

Оригинальное название: Singularity
Страна: Швейцария США
Режиссер: Роберт Коуба
Авторы сценария: Роберт Коуба, Себастьян Сепеда

Краткое содержание:
Действие фантастического фильма "Сингулярность" переносит нас в 2020 год. Крупнейшая по разработке роботов андроидов и роботизированной техники компания представляет миру свое новейшее достижение - компьютер-робот «Кронос». По задумке разработчиков он должен спасти человечество и положить конец всем войнам в мире. Компьютер быстро понял в чем причина всех конфликтов на земле - в самих же людях, и для исполнения своей миссии он начинает запуск программы по уничтожению человечества. Через 97 лет небольшая группа людей, которым удалось выжить и которые всё ещё скрываются от армии роботов, продолжает искать новый мир, в котором не нужно убегать от роботов, где можно жить спокойно и безопасно...

Продолжительность: 01:33:47
Перевод: многоголосый, закадровый
Качество: WEBRip

Видео: 480x208, 500 kb/s, 24 k/s
Звук: stereo , 96 kb/s, 44,1 khz
Размер: 407 MB

Mediainfo

Формат                                   : MPEG-4
Профиль формата                          : Base Media
Идентификатор кодека                     : isom (isom/iso2/avc1/mp41)
Размер файла                             : 407 Мбайт
Продолжительность                        : 1 ч. 33 м.
Режим общего битрейта                    : Переменный
Общий поток                              : 607 Кбит/сек
Программа кодирования                    : Lavf51.12.1

Видео
Идентификатор                            : 1
Формат                                   : AVC
Формат/Информация                        : Advanced Video Codec
Профиль формата                          : Baseline@L1.3
Параметр CABAC формата                   : Нет
Параметр ReFrames формата                : 1 кадр
Параметр GOP формата                     : M=1, N=12
Идентификатор кодека                     : avc1
Идентификатор кодека/Информация          : Advanced Video Coding
Продолжительность                        : 1 ч. 33 м.
Битрейт                                  : 506 Кбит/сек
Ширина                                   : 480 пикселей
Высота                                   : 208 пикселей
Соотношение сторон                       : 2,35:1
Режим частоты кадров                     : Постоянный
Частота кадров                           : 23,976 (23976/1000) кадра/сек
Цветовое пространство                    : YUV
Субдискретизация насыщенности            : 4:2:0
Битовая глубина                          : 8 бит
Тип развёртки                            : Прогрессивная
Бит/(Пиксели*Кадры)                      : 0.212
Размер потока                            : 340 Мбайт (83%)

Аудио
Идентификатор                            : 2
Формат                                   : AAC
Формат/Информация                        : Advanced Audio Codec
Профиль формата                          : LC
Идентификатор кодека                     : 40
Продолжительность                        : 1 ч. 33 м.
Вид битрейта                             : Переменный
Битрейт                                  : 96,0 Кбит/сек
Каналы                                   : 2 канала
Расположение каналов                     : Front: L R
Частота                                  : 44,1 КГц
Частота кадров                           : 43,066 кадра/сек (1024 spf)
Метод сжатия                             : С потерями
Размер потока                            : 64,3 Мбайт (16%)


Сингулярность (2017) адаптирован для скачивания и просмотра на телефонах, планшетах, смартфонах андроид

Смотреть онлайн Сингулярность (2017) на андроид

Видео


Трейлер

Смотреть онлайн Сингулярность (2017)
Плеер

Смотреть онлайн Сингулярность (2017)



СКАЧАТЬ ФИЛЬМ


НАЖАВ НА ЛЮБУЮ УДОБНУЮ ДЛЯ ВАС КНОПОЧКУ, ВЫ ПОМОГАЕТЕ САЙТУ РАЗВИВАТЬСЯ И НАПОЛНЯТЬСЯ НОВЫМИ ФИЛЬМАМИ МУЛЬТФИЛЬМАМИ И СЕРИАЛАМИ

У вас недостаточно прав для добавления комментариев.

Сингулярность (2017) | кпк
Сингулярность (2017) скачать на телефон планшет андроид на 7ba ru, anwap ru, anwap ru org, kape cc https://drop.me/Bk40eA
Сингулярность (2017) | | 2017-11-06 13:18:04 | | фантастика | http://cinemaphone.ru/images/logo.png | Действие фантастического фильма "Сингулярность" переносит нас в 2020 год.По задумке разработчиков «Кронос» должен спасти человечество и положить конец всем войнам в мире | Кармен Ардженциано, Джон Кьюсак, Эйлин Грубба, Джулиан Шаффнер, Джаннин Вакер