Дивергент, глава 3: За стеной (2016) на телефон планшет

1 1 1 1 1 Рейтинг 3.50 /6
Дивергент, глава 3: За стеной

Оригинальное название: Allegiant
Режиссер: Роберт Швентке

Краткое содержание:
Долгожданное продолжение фантастической саги о приключениях храброй Трис и её преданных друзьях, которые продолжают идти против системы, не обращая внимание на опасность. В этот раз они решают перебраться через стену, окружающую город и посмотреть, что же такое скрывает от них эта огромная преграда.
Но за стеной их ждала не долгожданная свобода, а новая для них организация - Бюро Генетической Защиты. Они должны быстро разобраться, кому можно доверять, так как битва, разгорающаяся за стенами города, угрожает всему человечеству. Чтобы выжить, Трис придется сделать непростой выбор между мужеством, верностью, любовью и необходимостью идти на жертвы.

Фильм Дивергент, глава 3: За стеной адаптирован для скачивания и просмотра на  телефонах , планшетах, смартфонах андроид

Продолжительность: 01:58:00
Перевод: дублированный
Качество: DVDRip

Mediainfo

Формат                                   : MPEG-4
Профиль формата                          : Base Media
Идентификатор кодека                     : isom (isom/iso2/avc1/mp41)
Размер файла                             : 353 Мбайт
Продолжительность                        : 1 ч. 50 м.
Режим общего битрейта                    : Переменный
Общий поток                              : 447 Кбит/сек
Программа кодирования                    : Lavf56.25.101

Видео
Идентификатор                            : 1
Формат                                   : AVC
Формат/Информация                        : Advanced Video Codec
Профиль формата                          : High@L3
Параметр CABAC формата                   : Да
Параметр ReFrames формата                : 4 кадра
Идентификатор кодека                     : avc1
Идентификатор кодека/Информация          : Advanced Video Coding
Продолжительность                        : 1 ч. 50 м.
Битрейт                                  : 345 Кбит/сек
Ширина                                   : 720 пикселей
Высота                                   : 304 пикселя
Соотношение сторон                       : 16:9
Соотношение сторон в оригинале           : 2,35:1
Режим частоты кадров                     : Постоянный
Частота кадров                           : 24,000 кадра/сек
Цветовое пространство                    : YUV
Субдискретизация насыщенности            : 4:2:0
Битовая глубина                          : 8 бит
Тип развёртки                            : Прогрессивная
Бит/(Пиксели*Кадры)                      : 0.066
Размер потока                            : 274 Мбайт (78%)
Библиотека кодирования                   : x264 core 146

Аудио
Идентификатор                            : 2
Формат                                   : AAC
Формат/Информация                        : Advanced Audio Codec
Профиль формата                          : LC
Идентификатор кодека                     : 40
Продолжительность                        : 1 ч. 50 м.
Вид битрейта                             : Переменный
Битрейт                                  : 96,0 Кбит/сек
Максимальный битрейт                     : 109 Кбит/сек
Каналы                                   : 2 канала
Расположение каналов                     : Front: L R
Частота                                  : 48,0 КГц
Частота кадров                           : 46,875 кадров/сек (1024 spf)
Метод сжатия                             : С потерями
Размер потока                            : 75,0 Мбайт (21%)
Default                                  : Да
Alternate group                          : 1

Видео: 640x360, 345 kb/s, 24 k/s
Звук: stereo , 96 kb/s, 48 khz
Размер: 506 MB

Скачать фильм Дивергент, глава 3 на телефон планшет смартфон андроид

Дивергент, глава 3: За стеной (2016) адаптирован для скачивания и просмотра на телефонах, планшетах, смартфонах андроид


Смотреть онлайн Дивергент, глава 3: За стеной (2016) на андроид

Видео


Трейлер

Смотреть онлайн Дивергент, глава 3: За стеной (2016)
Плеер

Смотреть онлайн Дивергент, глава 3: За стеной (2016)


Скачать с файлообменника


НАЖАВ НА ЛЮБУЮ УДОБНУЮ ДЛЯ ВАС КНОПОЧКУ, ВЫ ПОМОГАЕТЕ САЙТУ РАЗВИВАТЬСЯ И НАПОЛНЯТЬСЯ НОВЫМИ ФИЛЬМАМИ МУЛЬТФИЛЬМАМИ И СЕРИАЛАМИ

НЕ ЗНАЕТЕ КАК СКАЧАТЬ ?   ТОГДА ВАМ   СЮДА

Если ссылка на фильм битая, или фильм не качается: напишите об этом в комментариях

Спасибо за вашу помощь!

Добавить комментарий

Внимание! Гостям сайта запрещено вставлять в комментарии любые ссылки на сторонние ресурсы (они всё равно будут удалены)
Пишите по делу, этим Вы поможете другим пользователям в выборе фильма, а администрации - в улучшении сайта


Защитный код
Обновить

Дивергент, глава 3: За стеной (2016) | кпк
Дивергент, глава 3: За стеной (2016) скачать на телефон планшет андроид на 7ba ru, anwap ru, anwap ru org, kape cc
Дивергент, глава 3: За стеной (2016) | | 2016-06-10 10:07:29 | | фантастика | http://cinemaphone.ru/images/logo.png | Долгожданное продолжение фантастической саги о приключениях храброй Трис и её преданных друзьях, которые продолжают идти против системы, не обращая внимание на опасность | Шейлин Вудли, Тео Джеймс, Энсел Элгорт, Зои Кравиц, Майлз Теллер, Джефф Дэниелс, Наоми Уоттс, Мэгги Кью, Билл Скарсгард, Кейнан Лонсдейл, Надиа Хилкер, Октавия Спенсер, Дэниэл Дэ Ким, Джонни Уэстон, Энди Бин, Рэй Стивенсон, Мекхай Файфер, Джозеф Дэвид-Джонс, Эшли Джадд, Джош Давендек