Синхронность на телефон планшет

1 1 1 1 1 Рейтинг 3.50 /6
Синхронность

Синхронность
Оригинальное название: Synchronicity
Страна: США
Режиссер: Джейкоб Гентри

Краткое содержание:
Джим Бил и команда физиков-ядерщиков, вместе создают уменьшенную копию Большого адронного коллайдера. В процессе экспериментов они случайно открывают червоточину в пространственно-временном континууме. Это открытие, которое было ещё давным давно описано писателями фантастами, а в последствии стало навязчивой идеей всего прогрессивного человечества, означало то, что человеческая цивилизация наконец то сможет сбросить оковы пространства и времени и осуществить прорыв во всех областях науки и техники.
Но создатели, по сути машины времени, прекрасно осознавали то, что люди с нечистыми помыслами могут использовать их изобретение для собственной выгоды и во зло всему человечеству.
Но, как Джим не старался уберечь от посторонних взглядов своё изобретение, он всё таки совершил ошибку, рассказав обо всём девушке по имени - Эбби. Оказалось, что ей был нужен не он, а только информация о путешествиях во времени. Для того, что бы исправить свою ошибку, Джим отправляется в прошлое, но это стало ещё большей ошибкой...

Фильм Синхронность адаптирован для скачивания и просмотра на  телефонах , планшетах, смартфонах андроид

Продолжительность: 01:40:39
Перевод: любительский двухголосый
Качество: DVDRip

MediaInfo

Формат                                   : AVI
Формат/Информация                        : Audio Video Interleave
Размер файла                             : 330 Мбайт
Продолжительность                        : 1 ч. 40 м.
Общий поток                              : 458 Кбит/сек
Программа кодирования                    : Lavf54.42.100

Видео
Идентификатор                            : 0
Формат                                   : xvid
Идентификатор кодека                     : xvid
Продолжительность                        : 1 ч. 40 м.
Битрейт                                  : 390 Кбит/сек
Ширина                                   : 320 пикселей
Высота                                   : 176 пикселей
Соотношение сторон                       : 2,35:1
Частота кадров                           : 23,976 кадра/сек
Тип развёртки                            : Прогрессивная
Бит/(Пиксели*Кадры)                      : 0.289
Размер потока                            : 281 Мбайт (85%)

Аудио
Идентификатор                            : 1
Формат                                   : MPEG Audio
Версия формата                           : Version 1
Профиль формата                          : Layer 3
Режим                                    : Joint stereo
Расширение режима                        : MS Stereo
Идентификатор кодека                     : 55
Идентификатор кодека/Подсказка           : MP3
Продолжительность                        : 1 ч. 40 м.
Вид битрейта                             : Постоянный
Битрейт                                  : 56,0 Кбит/сек
Каналы                                   : 2 канала
Частота                                  : 44,1 КГц
Метод сжатия                             : С потерями
Размер потока                            : 40,3 Мбайт (12%)
Выравнивание                             : Соединение по промежуткам
Продолжительность промежутка             : 26  мс. (0,63 видеокадр)
Время предзагрузки промежутка            : 78  мс.

Видео: 320×176 , 390 kb/s , 23,976 k/s
Звук: stereo , 56 kb/s ,48 khz
Размер: 330 MB

Скачать фильм Синхронность на телефон планшет смартфон андроид


Синхронность адаптирован для скачивания и просмотра на телефонах, планшетах, смартфонах андроид

Смотреть онлайн Синхронность на андроид

Видео


Трейлер

Смотреть онлайн Синхронность
Плеер

Смотреть онлайн Синхронность





НАЖАВ НА ЛЮБУЮ УДОБНУЮ ДЛЯ ВАС КНОПОЧКУ, ВЫ ПОМОГАЕТЕ САЙТУ РАЗВИВАТЬСЯ И НАПОЛНЯТЬСЯ НОВЫМИ ФИЛЬМАМИ МУЛЬТФИЛЬМАМИ И СЕРИАЛАМИ

У вас недостаточно прав для добавления комментариев.

Синхронность | кпк
Синхронность скачать на телефон планшет андроид на 7ba ru, anwap ru, anwap ru org, kape cc
Синхронность | | 2016-03-07 21:11:02 | | фантастика | http://cinemaphone.ru/images/logo.png | Джим Бил и команда физиков-ядерщиков, вместе создают уменьшенную копию Большого адронного коллайдера. В процессе экспериментов они случайно открывают червоточину в пространственно-временном континууме | Чад МакНайт, Брианна Дэвис, Эй Джей Боуэн, Скотт Пойтресс, Майкл Айронсайд, Клер Бронсон, Эшли Дрейтон, Дерек Райан Дьюк, Эль Сункара