Ниндзя Апокалипсиса mp4 на телефон планшет

1 1 1 1 1 Рейтинг 5.00 /1

Ниндзя Апокалипсиса

Оригинальное название: Ninja Apocalypse
Год выхода: 2014
Выпущено: США
Режиссер: Ллойд Ли Барнетт

Краткое содержание:
После апокалипсиса человечество оказалось откинутым во времена средневековья. Кейдж - представитель одного из боевых кланов, враждующих между собой, обвиняется в убийстве Мастера своего клана. Пытаясь спастись и доказать свою невиновность, он с друзьями сбегает. Но тайный коварный враг заманивают их в ловушку, в которой их поджидают полчища зомби.
Фильм  Ниндзя Апокалипсиса адаптирован для скачивания и просмотра на  телефонах  и планшетах  андроид и  iPhone

Продолжительность: 01:23:24
Озвучивание: одноголосое
Качество: HDRip

Видео: 480x320, 512 kb/s , 24 k/s
Звук: stereo , 128 kb/s , 44.1 khz
Размер: 384 MB

Mediainfo

Format                                   : MPEG-4
Format profile                           : Base Media
Codec ID                                 : isom
File size                                : 384 MiB
Duration                                 : 1h 23mn
Overall bit rate mode                    : Variable
Overall bit rate                         : 644 Kbps
Writing application                      : Lavf51.12.1

Video
ID                                       : 1
Format                                   : MPEG-4 Visual
Format profile                           : Simple@L1
Format settings, BVOP                    : No
Format settings, QPel                    : No
Format settings, GMC                     : No warppoints
Format settings, Matrix                  : Default (H.263)
Codec ID                                 : 20
Duration                                 : 1h 23mn
Bit rate                                 : 512 Kbps
Width                                    : 480 pixels
Height                                   : 320 pixels
Display aspect ratio                     : 2.35:1
Frame rate mode                          : Constant
Frame rate                               : 23.976 fps
Color space                              : YUV
Chroma subsampling                       : 4:2:0
Bit depth                                : 8 bits
Scan type                                : Progressive
Compression mode                         : Lossy
Bits/(Pixel*Frame)                       : 0.139
Stream size                              : 305 MiB (79%)
Writing library                          : Lavc51.40.4

Audio
ID                                       : 2
Format                                   : AAC
Format/Info                              : Advanced Audio Codec
Format profile                           : LC
Codec ID                                 : 40
Duration                                 : 1h 23mn
Bit rate mode                            : Variable
Bit rate                                 : 128 Kbps
Channel(s)                               : 2 channels
Channel positions                        : Front: L R
Sampling rate                            : 44.1 KHz
Compression mode                         : Lossy
Stream size                              : 76.4 MiB (20%)

Скачать Ниндзя Апокалипсиса mp4 для андроид

Ниндзя Апокалипсиса mp4 адаптирован для скачивания и просмотра на телефонах, планшетах, смартфонах андроид


Смотреть онлайн Ниндзя Апокалипсиса mp4 на андроид

Видео


Трейлер

Смотреть онлайн Ниндзя Апокалипсиса mp4
Плеер

Смотреть онлайн Ниндзя Апокалипсиса mp4


Скачать с файлообменника


НАЖАВ НА ЛЮБУЮ УДОБНУЮ ДЛЯ ВАС КНОПОЧКУ, ВЫ ПОМОГАЕТЕ САЙТУ РАЗВИВАТЬСЯ И НАПОЛНЯТЬСЯ НОВЫМИ ФИЛЬМАМИ МУЛЬТФИЛЬМАМИ И СЕРИАЛАМИ

НЕ ЗНАЕТЕ КАК СКАЧАТЬ ?   ТОГДА ВАМ   СЮДА

Если ссылка на фильм битая, или фильм не качается: напишите об этом в комментариях

Спасибо за вашу помощь!

Добавить комментарий

Внимание! Гостям сайта запрещено вставлять в комментарии любые ссылки на сторонние ресурсы (они всё равно будут удалены)
Пишите по делу, этим Вы поможете другим пользователям в выборе фильма, а администрации - в улучшении сайта


Защитный код
Обновить

Ниндзя Апокалипсиса mp4 | кпк
Ниндзя Апокалипсиса mp4 скачать на телефон планшет андроид на 7ba ru, anwap ru, anwap ru org, kape cc
Ниндзя Апокалипсиса mp4 | | 2014-07-30 12:06:39 | | фантастика | http://cinemaphone.ru/images/logo.png | Скачать фильм Ниндзя Апокалипсиса для андроид , планшета , кпк , смартфона .После апокалипсиса человечество оказалось откинутым во времена средневековья | Кристиан Оливер, Лес Брандт, Кэри-Хироюки Тагава, Эрни Рейес мл., Айзек С. Синглтон мл., Каиви Лайман, Уэст Лианг, Тара Мэкен, Антуанетта Никпрелаж, Элвин Синг