Машина mp4 на телефон планшет

1 1 1 1 1 Рейтинг 0.00 /0

Машина

Оригинальное название: The Machine
Год выпуска: 2013
Режиссер: Карадог В. Джеймс

Краткое содержание:
Из-за нестабильной обстановки в мире британское министерство обороны нуждается в получении нового оружия. Ведущий ученый Винсент МакКарти предоставляет свое решение этого вопроса, «Машина» — андроид с непревзойденными физическими способностями. Когда программная ошибка заставляет опытный образец разрушать его лабораторию, МакКарти вербует эксперта по искусственному интеллекту Ава, чтобы помочь ему использовать полный потенциал машины-убийцы.
Фильм  Машина адаптирован для скачивания и просмотра на  телефонах  и планшетах  андроид и  iPhone

Выпущено: Австралия
Продолжительность: 01:26:46
Перевод: одноголосый
Качество: HDRip

Видео: 480x320, 512 kb/s , 24 k/s
Звук: stereo , 128 kb/s , 44.1 khz
Размер: 309 MB

Mediainfo

Format                                   : MPEG-4
Format profile                           : Base Media
Codec ID                                 : isom
File size                                : 400 MiB
Duration                                 : 1h 26mn
Overall bit rate mode                    : Variable
Overall bit rate                         : 645 Kbps
Writing application                      : Lavf51.12.1

Video
ID                                       : 1
Format                                   : MPEG-4 Visual
Format profile                           : Simple@L1
Format settings, BVOP                    : No
Format settings, QPel                    : No
Format settings, GMC                     : No warppoints
Format settings, Matrix                  : Default (H.263)
Codec ID                                 : 20
Duration                                 : 1h 26mn
Bit rate                                 : 512 Kbps
Width                                    : 480 pixels
Height                                   : 320 pixels
Display aspect ratio                     : 16:9
Frame rate mode                          : Constant
Frame rate                               : 23.976 fps
Color space                              : YUV
Chroma subsampling                       : 4:2:0
Bit depth                                : 8 bits
Scan type                                : Progressive
Compression mode                         : Lossy
Bits/(Pixel*Frame)                       : 0.139
Stream size                              : 318 MiB (79%)
Writing library                          : Lavc51.40.4

Audio
ID                                       : 2
Format                                   : AAC
Format/Info                              : Advanced Audio Codec
Format profile                           : LC
Codec ID                                 : 40
Duration                                 : 1h 26mn
Bit rate mode                            : Variable
Bit rate                                 : 128 Kbps
Channel(s)                               : 2 channels
Channel positions                        : Front: L R
Sampling rate                            : 44.1 KHz
Compression mode                         : Lossy
Stream size                              : 79.4 MiB (20%)

Скачать Машина mp4 для андроид


Машина mp4 адаптирован для скачивания и просмотра на телефонах, планшетах, смартфонах андроид

Смотреть онлайн Машина mp4 на андроид

Видео


Трейлер

Смотреть онлайн Машина mp4
Плеер

Смотреть онлайн Машина mp4





НАЖАВ НА ЛЮБУЮ УДОБНУЮ ДЛЯ ВАС КНОПОЧКУ, ВЫ ПОМОГАЕТЕ САЙТУ РАЗВИВАТЬСЯ И НАПОЛНЯТЬСЯ НОВЫМИ ФИЛЬМАМИ МУЛЬТФИЛЬМАМИ И СЕРИАЛАМИ

У вас недостаточно прав для добавления комментариев.

Машина mp4 | кпк
Машина mp4 скачать на телефон планшет андроид на 7ba ru, anwap ru, anwap ru org, kape cc
Машина mp4 | | 2014-07-28 19:16:42 | | фантастика | http://cinemaphone.ru/images/logo.png | Скачать фильм Машина для андроид , планшета , кпк , смартфона .Из-за нестабильной обстановки в мире британское министерство обороны нуждается в получении нового оружия | Кейти Лотц, Тоби Стивенс, Сэм Хэзелдайн, Дэнис Лосон, Ли Николас Харрис, Бен МакГрегор, Хелен Гриффин, Суле Рими