Воскресение Христа(2016) на телефон планшет

1 1 1 1 1 Рейтинг 3.38 /13
Воскресение Христа(2016)

Оригинальное название: Risen
Режиссер: Кевин Рейнольдс
Страна: США

Краткое содержание:
Фильм "Воскресение Христа" - это ещё один взгляд кинематографа на библейскую историю, произошедшую более двух тысяч лет назад. В то время еврейский народ находился под гнётом Римской Империи, что вызывало вспышки недовольства среди иудеев. Римляне всячески старались пресекать любые возмущения ещё в зародыше, по этому любые проявления недовольства или высказывания против правящего режима пресекались очень жестко. В это время в Иерусалим, после странствований возвращается проповедник по имени Иисус Христос, известный своими высказываниями против действующей власти и духовенства.
Испугавшись народного волнения, Понтий Пилат, в сговоре с иудейскими священниками, решает казнить проповедника, а его тело спрятать в пещере. Тем самым он хотел доказать народу, что Христос обычный человек.
Следить за всем этим был поставлен трибун Клавиус. Но тело всё таки исчезло, что создало трибуну кучу проблем, ведь скоро в Иерусалим должен прибыть Римский император.
Занимаясь поисками тела, Клавиус начинает понимать, что то во что он верил раньше рассыпается прямо на его глазах.

Фильм Воскресение Христа адаптирован для скачивания и просмотра на  телефонах , планшетах, смартфонах андроид

Продолжительность: 01:40:18
Перевод: многоголосый, закадровый
Качество: DVDRip

MediaInfo

Формат                                   : AVI
Формат/Информация                        : Audio Video Interleave
Размер файла                             : 352 Мбайт
Продолжительность                        : 1 ч. 47 м.
Общий поток                              : 458 Кбит/сек
Программа кодирования                    : Lavf54.42.100

Видео
Идентификатор                            : 0
Формат                                   : xvid
Идентификатор кодека                     : xvid
Продолжительность                        : 1 ч. 47 м.
Битрейт                                  : 390 Кбит/сек
Ширина                                   : 320 пикселей
Высота                                   : 176 пикселей
Соотношение сторон                       : 2,35:1
Частота кадров                           : 23,976 кадра/сек
Тип развёртки                            : Прогрессивная
Бит/(Пиксели*Кадры)                      : 0.289
Размер потока                            : 300 Мбайт (85%)

Аудио
Идентификатор                            : 1
Формат                                   : MPEG Audio
Версия формата                           : Version 1
Профиль формата                          : Layer 3
Режим                                    : Joint stereo
Расширение режима                        : MS Stereo
Идентификатор кодека                     : 55
Идентификатор кодека/Подсказка           : MP3
Продолжительность                        : 1 ч. 47 м.
Вид битрейта                             : Постоянный
Битрейт                                  : 56,0 Кбит/сек
Каналы                                   : 2 канала
Частота                                  : 44,1 КГц
Метод сжатия                             : С потерями
Размер потока                            : 43,0 Мбайт (12%)
Выравнивание                             : Соединение по промежуткам
Продолжительность промежутка             : 26  мс. (0,63 видеокадр)
Время предзагрузки промежутка            : 78  мс.

Видео: 320х176, 390 kb/s, 23.976 k/s
Звук: stereo , 56 kb/s, 44,1 khz
Размер: 352 МB

Скачать фильм Воскресение Христа (2016) на телефон планшет смартфон андроид


Воскресение Христа(2016) адаптирован для скачивания и просмотра на телефонах, планшетах, смартфонах андроид

Смотреть онлайн Воскресение Христа(2016) на андроид

Видео


Трейлер

Смотреть онлайн Воскресение Христа(2016)
Плеер

Смотреть онлайн Воскресение Христа(2016)





НАЖАВ НА ЛЮБУЮ УДОБНУЮ ДЛЯ ВАС КНОПОЧКУ, ВЫ ПОМОГАЕТЕ САЙТУ РАЗВИВАТЬСЯ И НАПОЛНЯТЬСЯ НОВЫМИ ФИЛЬМАМИ МУЛЬТФИЛЬМАМИ И СЕРИАЛАМИ

У вас недостаточно прав для добавления комментариев.

Воскресение Христа(2016) | кпк
Воскресение Христа(2016) скачать на телефон планшет андроид на 7ba ru, anwap ru, anwap ru org, kape cc
Воскресение Христа(2016) | | 2016-05-15 11:50:19 | | драма | http://cinemaphone.ru/images/logo.png | Фильм "Воскресение Христа" - это ещё один взгляд кинематографа на библейскую историю, произошедшую более двух тысяч лет назад. В то время еврейский народ находился под гнётом Римской Империи, что вызывало вспышки недовольства среди иудеев | Джозеф ФайнсТом ФелтонПитер ФёртКлифф КёртисМария БоттоЛуис КальехоАнтонио Хиль-МартинесРичард ЭтуиллМарк КиллинСтюарт Скудамор