Я солдат на телефон планшет

1 1 1 1 1 Рейтинг 0.00 /0

Я солдат

Оригинальное название: I am soldier
Год выхода: 2014
Режиссер: Ронни Томпсон

Краткое содержание:
Многие пытаются попасть в полк британского спецназа SAS, но только лучшие могут это сделать. Сюжет сосредоточится на Микки который пройдет через каждую изнурительную стадию отбора, который не только развивает его физически, но и морально.
Фильм Я солдат  адаптирован для скачивания и просмотра на  телефонах  и планшетах  андроид и  iPhone

Выпущено: Великобритания
Продолжительность: 01:27:57
Озвучивание: Любительское (двухголосое)
Качество: HDRip

Видео: 480x320, 512 kb/s , 24 k/s
Звук: stereo , 128 kb/s , 44.1 khz
Размер: 404 MB

Mediainfo

Format                                   : MPEG-4
Format profile                           : Base Media
Codec ID                                 : isom
File size                                : 405 MiB
Duration                                 : 1h 27mn
Overall bit rate mode                    : Variable
Overall bit rate                         : 643 Kbps
Writing application                      : Lavf51.12.1

Video
ID                                       : 1
Format                                   : MPEG-4 Visual
Format profile                           : Simple@L1
Format settings, BVOP                    : No
Format settings, QPel                    : No
Format settings, GMC                     : No warppoints
Format settings, Matrix                  : Default (H.263)
Codec ID                                 : 20
Duration                                 : 1h 27mn
Bit rate                                 : 511 Kbps
Width                                    : 480 pixels
Height                                   : 320 pixels
Display aspect ratio                     : 2.35:1
Frame rate mode                          : Constant
Frame rate                               : 23.976 fps
Color space                              : YUV
Chroma subsampling                       : 4:2:0
Bit depth                                : 8 bits
Scan type                                : Progressive
Compression mode                         : Lossy
Bits/(Pixel*Frame)                       : 0.139
Stream size                              : 322 MiB (79%)
Writing library                          : Lavc51.40.4

Audio
ID                                       : 2
Format                                   : AAC
Format/Info                              : Advanced Audio Codec
Format profile                           : LC
Codec ID                                 : 40
Duration                                 : 1h 27mn
Bit rate mode                            : Variable
Bit rate                                 : 128 Kbps
Channel(s)                               : 2 channels
Channel positions                        : Front: L R
Sampling rate                            : 44.1 KHz
Compression mode                         : Lossy
Stream size                              : 80.4 MiB (20%)

Скачать фильм Я солдат на телефон планшет смартфон андроид

Я солдат адаптирован для скачивания и просмотра на телефонах, планшетах, смартфонах андроид


Смотреть онлайн Я солдат на андроид

Видео


Трейлер

Смотреть онлайн Я солдат
Плеер

Смотреть онлайн Я солдат


Скачать с файлообменника


НАЖАВ НА ЛЮБУЮ УДОБНУЮ ДЛЯ ВАС КНОПОЧКУ, ВЫ ПОМОГАЕТЕ САЙТУ РАЗВИВАТЬСЯ И НАПОЛНЯТЬСЯ НОВЫМИ ФИЛЬМАМИ МУЛЬТФИЛЬМАМИ И СЕРИАЛАМИ

НЕ ЗНАЕТЕ КАК СКАЧАТЬ ?   ТОГДА ВАМ   СЮДА

Если ссылка на фильм битая, или фильм не качается: напишите об этом в комментариях

Спасибо за вашу помощь!

Добавить комментарий

Внимание! Гостям сайта запрещено вставлять в комментарии любые ссылки на сторонние ресурсы (они всё равно будут удалены)
Пишите по делу, этим Вы поможете другим пользователям в выборе фильма, а администрации - в улучшении сайта


Защитный код
Обновить

Я солдат | кпк
Я солдат скачать на телефон планшет андроид на 7ba ru, anwap ru, anwap ru org, kape cc
Я солдат | | 2014-09-07 20:14:37 | | боевик | http://cinemaphone.ru/images/logo.png | Скачать фильм Я солдат на телефон планшет смартфон андроид.Многие пытаются попасть в полк британского спецназа SAS, но только лучшие могут это сделать | Дункан Кэйси, Lee Charles, Ноэль Кларк, Филип Десмюль, Джо Иган, Майк Фьюри, David Goodman, Diarmuid Hughes, Том Хьюз